Ir para conteúdo


Foto

Vídeo Games - O Filme


Não há respostas para este tópico

#1 matador

matador

    Jogador antigo

  • Administrador
  • 323 posts
  • Local:Planeta Terra

Postado 14 abril 2019 - 09:20

Vídeo Games - O Filme
 
Complete name               : Vídeo Games - O Filme
Format                      : MPEG-4
Format profile              : Base Media / Version 2
Codec ID                    : mp42 (isom/mp42)
File size                   : 788 MiB
Duration                    : 1 h 41 min
Overall bit rate mode       : Variable
Overall bit rate            : 1 089 kb/s
Encoded date                : UTC 2018-09-08 10:00:13
Tagged date                 : UTC 2018-09-08 10:00:13
gsst                        : 0
gstd                        : 6068047
 
Video
ID                          : 1
Format                      : AVC
Format/Info                 : Advanced Video Codec
Format profile              : Main@L3.1
Format settings             : CABAC / 3 Ref Frames
Format settings, CABAC      : Yes
Format settings, ReFrames   : 3 frames
Codec ID                    : avc1
Codec ID/Info               : Advanced Video Coding
Duration                    : 1 h 41 min
Bit rate                    : 959 kb/s
Width                       : 1 280 pixels
Height                      : 720 pixels
Display aspect ratio        : 16:9
Frame rate mode             : Variable
Frame rate                  : 23.976 (24000/1001) FPS
Minimum frame rate          : 23.974 FPS
Maximum frame rate          : 23.987 FPS
Color space                 : YUV
Chroma subsampling          : 4:2:0
Bit depth                   : 8 bits
Scan type                   : Progressive
Bits/(Pixel*Frame)          : 0.043
Stream size                 : 694 MiB (88%)
Title                       : ISO Media file produced by Google Inc. Created on: 09/08/2018.
Encoded date                : UTC 2018-09-08 10:00:13
Tagged date                 : UTC 2018-09-08 10:00:13
Color range                 : Limited
Color primaries             : BT.709
Transfer characteristics    : BT.709
Matrix coefficients         : BT.709
Codec configuration box     : avcC
 
Audio
ID                          : 2
Format                      : AAC LC
Format/Info                 : Advanced Audio Codec Low Complexity
Codec ID                    : mp4a-40-2
Duration                    : 1 h 41 min
Bit rate mode               : Variable
Bit rate                    : 126 kb/s
Channel(s)                  : 2 channels
Channel layout              : L R
Sampling rate               : 44.1 kHz
Frame rate                  : 43.066 FPS (1024 SPF)
Compression mode            : Lossy
Stream size                 : 90.8 MiB (12%)
Title                       : ISO Media file produced by Google Inc. Created on: 09/08/2018.
Language                    : Portuguese
Encoded date                : UTC 2018-09-08 10:00:13
Tagged date                 : UTC 2018-09-08 10:00:13
 
Link:
 
Uploader: matador




Responder



  


0 usuário(s) está(ão) lendo este tópico

0 membros, 0 visitantes, 0 membros anônimos